I-pic.Ru - бесплатный фотохостинг без регистрации.



Полное название: Призрачный патруль 3Д / R.I.P.D. 3D (2013) [BDrip, Half OverUnder / Вертикальная анаморфная стереопара]

Данный релиз Вы можете Скачать с сайта Открытый торрент-трекер :: Torrent-Lynx.Ru :: (без регистрации) на высокой скорости.

image


Полное название: Призрачный патруль 3Д / R.I.P.D. 3D (2013) [BDrip, Half OverUnder / Вертикальная анаморфная стереопара]
Тип: Фильмы 3D / >> Фильмы 3D Стереопары <<
Год выпуска: 2013
Страна: США
Жанр: фэнтези, боевик, комедия, криминал
Продолжительность: 01:35:50
Перевод: Дубляж ( iTunes Russia )
Русские субтитры: нет

Режиссер: Роберт Швентке / Robert Schwentke

В ролях: Джефф Бриджес, Райан Рейнольдс, Кевин Бейкон, Мэри-Луиз Паркер, Стефани Зостак, Джеймс Хонг, Мариса Миллер, Роберт Неппер, Майк О’Мэлли, Девин Рэтрей

Описание: Детективы из загробного департамента расследуют преступления по ту сторону могилы и гоняются за не в меру ретивой нечистью. Молодой коп, после гибели от руки неизвестного злоумышленника угодивший в мир иной, в обмен на помощь при расследовании собственного убийства обязуется следующие сто лет посвятить службе в R.I.P.D. и, получив в напарники брутального стрелка эпохи вестернов, выходит на борьбу с неупокоившимся злом.

ehnvuptu8pwp.jpg 0j8k6it423t9.jpg fc2b26ifr518.jpg

nk548k4ghdqd.jpg l07d3qc8t40k.jpg zhqhcgfpqajn.jpg

MediaInfo
Format : Matroska
File size : 7.93 GiB
Duration : 1h 35mn
Overall bit rate : 11.8 Mbps
Movie name : [torrent3d.ru]
Encoded date : UTC 2013-10-18 18:52:41
Writing application : mkvmerge v4.0.0 ('The Stars were mine') сборка от Jun 6 2010 16:18:42
Writing library : libebml v1.0.0 + libmatroska v1.0.0

Video
ID : 1
Format : AVC
Format/Info : Advanced Video Codec
Format profile : High@L4.1
Format settings, CABAC : Yes
Format settings, ReFrames : 4 frames
Muxing mode : Container profile=Unknown@4.1
Codec ID : V_MPEG4/ISO/AVC
Duration : 1h 35mn
Bit rate : 11.2 Mbps
Width : 1 920 pixels
Height : 1 080 pixels
Display aspect ratio : 16:9
Frame rate : 23.976 fps
Color space : YUV
Chroma subsampling : 4:2:0
Bit depth : 8 bits
Scan type : Progressive
Bits/(Pixel*Frame) : 0.225
Stream size : 7.51 GiB (95%)

Audio
ID : 2
Format : AC-3
Format/Info : Audio Coding 3
Mode extension : CM (complete main)
Codec ID : A_AC3
Duration : 1h 35mn
Bit rate mode : Constant
Bit rate : 384 Kbps
Channel(s) : 6 channels
Channel positions : Front: L C R, Side: L R, LFE
Sampling rate : 48.0 KHz
Video delay : 24ms
Stream size : 264 MiB (3%)

Menu
00:00:00.000 : en:00:00:00.000
00:03:56.111 : en:00:03:56.111
00:09:12.135 : en:00:09:12.135
00:14:29.577 : en:00:14:29.577
00:17:57.410 : en:00:17:57.410
00:22:29.598 : en:00:22:29.598
00:27:08.502 : en:00:27:08.502
00:33:32.510 : en:00:33:32.510
00:38:45.156 : en:00:38:45.156
00:43:26.646 : en:00:43:26.646
00:46:30.746 : en:00:46:30.746
00:52:03.037 : en:00:52:03.037
00:55:51.098 : en:00:55:51.098
01:02:14.981 : en:01:02:14.981
01:07:00.099 : en:01:07:00.099
01:10:34.689 : en:01:10:34.689
01:13:15.308 : en:01:13:15.308
01:17:51.125 : en:01:17:51.125
01:22:59.933 : en:01:22:59.933
01:27:26.908 : en:01:27:26.908


Размер: 7.93 GB

Данный релиз можно скачать с сайта Всё 3D Рунета - торрент-трекера 3D фильмов, мультфильмов, документальных передач в форматах стереопара, анаглиф, 3D Blu-Ray.

Размер: 7.93 GB