I-pic.Ru - бесплатный фотохостинг без регистрации.



Полное название: Университет монстров 3Д / Monsters University 3D (2013) [BDrip, Half Side-by-Side / Горизонтальная анаморфная стереопара]

Данный релиз Вы можете Скачать с сайта Открытый торрент-трекер :: Torrent-Lynx.Ru :: (без регистрации) на высокой скорости.

image


Полное название: Университет монстров 3Д / Monsters University 3D (2013) [BDrip, Half Side-by-Side / Горизонтальная анаморфная стереопара]
Тип: Мультфильмы 3D / >> Мультфильмы 3D Стереопары <<
Информация о мультфильме

Название: Университет монстров

Оригинальное название: Monsters University
Год выхода: 2013
Жанр: мультфильм, фэнтези, комедия, приключения, семейный
Режиссер: Дэн Скэнлон
В ролях: Джон Гудман, Билли Кристал, Стив Бушеми, Хелен Миррен, Питер Сон, Джоэль Мюррей, Шон Хейс, Дэйв Фоли, Чарли Дэй, Альфред Молина

О мультфильме: Майк и Салли — самые опытные пугатели в Монстрополисе, но так было далеко не всегда. Когда они встретились впервые, эти совершенно непохожие друг на друга монстры терпеть друг друга не могли. «Университет Монстров» — история о том, как наши старые знакомые прошли путь от взаимной неприязни к крепкой дружбе.

Выпущено: США / Pixar Animation Studios, Walt Disney Pictures

Продолжительность: 1:43:47

Озвучивание: Профессиональное (многоголосое) + Английский (оригинал)

r6cs78ti3p2ygycqwlpixm891.jpg 5gtf67w10fx7z6yexnkmp201h.jpg hnuemk0t4fp13gz94wxzk3nyd.jpg

zd6y5d7ixbv9ae3gus91i8t5u.jpg jenw4ql7ma2p70c8ub9z4ejld.jpg 0tatnv4s9plp1i210gx0juksj.jpg

MediaInfo
Format : Matroska
File size : 8.24 GiB
Duration : 1h 43mn
Overall bit rate : 11.4 Mbps
Movie name : [torrent3d.ru]
Encoded date : UTC 2013-10-12 18:51:40
Writing application : mkvmerge v4.0.0 ('The Stars were mine') сборка от Jun 6 2010 16:18:42
Writing library : libebml v1.0.0 + libmatroska v1.0.0

Video
ID : 1
Format : AVC
Format/Info : Advanced Video Codec
Format profile : High@L4.1
Format settings, CABAC : Yes
Format settings, ReFrames : 2 frames
Muxing mode : Container profile=Unknown@4.1
Codec ID : V_MPEG4/ISO/AVC
Duration : 1h 43mn
Bit rate : 10.1 Mbps
Width : 1 920 pixels
Height : 1 080 pixels
Display aspect ratio : 16:9
Frame rate : 23.976 fps
Color space : YUV
Chroma subsampling : 4:2:0
Bit depth : 8 bits
Scan type : Progressive
Bits/(Pixel*Frame) : 0.204
Stream size : 7.34 GiB (89%)
Writing library : x264 core
Color primaries : BT.709-5, BT.1361, IEC 61966-2-4, SMPTE RP177
Transfer characteristics : BT.709-5, BT.1361
Matrix coefficients : BT.709-5, BT.1361, IEC 61966-2-4 709, SMPTE RP177

Audio #1
ID : 2
Format : AC-3
Format/Info : Audio Coding 3
Mode extension : CM (complete main)
Codec ID : A_AC3
Duration : 1h 43mn
Bit rate mode : Constant
Bit rate : 384 Kbps
Channel(s) : 6 channels
Channel positions : Front: L C R, Side: L R, LFE
Sampling rate : 48.0 KHz
Stream size : 285 MiB (3%)

Audio #2
ID : 3
Format : AC-3
Format/Info : Audio Coding 3
Mode extension : CM (complete main)
Codec ID : A_AC3
Duration : 1h 43mn
Bit rate mode : Constant
Bit rate : 640 Kbps
Channel(s) : 6 channels
Channel positions : Front: L C R, Side: L R, LFE
Sampling rate : 48.0 KHz
Stream size : 475 MiB (6%)

Menu
00:00:00.000 : en:00:00:00.000
00:06:26.720 : en:00:06:26.720
00:07:06.885 : en:00:07:06.885
00:10:54.112 : en:00:10:54.112
00:12:19.947 : en:00:12:19.947
00:16:09.969 : en:00:16:09.969
00:18:15.636 : en:00:18:15.636
00:19:37.593 : en:00:19:37.593
00:21:06.849 : en:00:21:06.849
00:23:43.630 : en:00:23:43.630
00:29:22.719 : en:00:29:22.719
00:30:39.462 : en:00:30:39.462
00:33:38.099 : en:00:33:38.099
00:36:30.980 : en:00:36:30.980
00:38:19.422 : en:00:38:19.422
00:39:22.568 : en:00:39:22.568
00:45:13.335 : en:00:45:13.335
00:47:14.831 : en:00:47:14.831
00:51:08.148 : en:00:51:08.148
00:55:21.192 : en:00:55:21.192
00:57:30.321 : en:00:57:30.321
01:01:42.239 : en:01:01:42.239
01:04:37.289 : en:01:04:37.289
01:07:33.006 : en:01:07:33.006
01:14:11.321 : en:01:14:11.321
01:18:07.849 : en:01:18:07.849
01:19:25.718 : en:01:19:25.718
01:23:53.402 : en:01:23:53.402
01:24:38.656 : en:01:24:38.656
01:28:00.232 : en:01:28:00.232
01:32:51.356 : en:01:32:51.356
01:34:24.032 : en:01:34:24.032


Размер: 8.24 GB

Данный релиз можно скачать с сайта Всё 3D Рунета - торрент-трекера 3D фильмов, мультфильмов, документальных передач в форматах стереопара, анаглиф, 3D Blu-Ray.

Размер: 8.24 GB