I-pic.Ru - бесплатный фотохостинг без регистрации.



Полное название: LEGO / Бэтмен: Супер-герои DC объединяются в 3Д (2013) [Half OverUnder / Вертикальная анаморфная стереопара]

Данный релиз Вы можете Скачать с сайта Открытый торрент-трекер :: Torrent-Lynx.Ru :: (без регистрации) на высокой скорости.

image


Полное название: LEGO / Бэтмен: Супер-герои DC объединяются в 3Д (2013) [Half OverUnder / Вертикальная анаморфная стереопара]
Тип: Мультфильмы 3D / >> Мультфильмы 3D Стереопары <<
Название: Супергерои DC объединяются
Оригинал: LEGO Batman: The Movie - DC Super Heroes Unit
Год: 2013
Жанр: Зарубежные Мультфильмы
Режиссер: Джон Бартон
В ролях: Трой Бэйкер, Брайан Блум, Стивен Блум, Клэнси Браун, Кэм Кларк, Таунсенд Коулмэн, Кристиан Элисондо, Захари Хевн, Роб Полсен
Выпущено: США, Великобритания

Озвучивание: Дублированное [лицензия]

Описание: В Готэме вручают награду «Гражданин года». Но неожиданно, на вечеринку заявляется Джокер и с ним целая свита злодеев: Загадочник, Женщина-Кошка и Двуликий. Темный рыцарь приходит на помощь, чтобы обуздать этих нежданных гостей. Но не всех преступников видно невооруженным глазом. Леке Лютор пронес на вечеринку Деконструктор — секретное оружие, теперь баланс сил в Готэме может измениться навсегда! С такими противниками Бэтмен и Робин будут долго биться в одиночку. Хорошо, что у них есть Супер-друзья! Присоединяйтесь к борьбе со злом вместе с Суперменом, Чудо-женщиной, Зеленым фонарем и Лигой Справедливости! Они спешат защитить невинных, спасти Готэм-сити и, конечно, не упустят шанс пошутить. Вас ждут абсолютно новые захватывающие моменты, которых не было в видео-игре. Это первый полнометражный фильм про Лего Бэтмена. Кто знает, может, и он не откажется повеселиться!

k9c9p2twk87mfzszhab6skdov.jpg t5ts53471jxk79h3kns3cz4eu.jpg mpy1ahutzporjlis0so81heza.jpg

hp5lag1y826rlv81dgblza5e9.jpg ulgybg7rbhri9f1bxbwu3z24b.jpg r56v3p89e9faphi7phcu8ei01.jpg

*За предоставленный исходник Спасибо Karatel7272 и NoLimits-Team

MediaInfo
Format : Matroska
File size : 4.92 GiB
Duration : 1h 10mn
Overall bit rate : 9 951 Kbps
Movie name : [torrent3d.ru]
Encoded date : UTC 2013-10-11 21:04:33
Writing application : mkvmerge v4.0.0 ('The Stars were mine') сборка от Jun 6 2010 16:18:42
Writing library : libebml v1.0.0 + libmatroska v1.0.0

Video
ID : 1
Format : AVC
Format/Info : Advanced Video Codec
Format profile : High@L4.0
Format settings, CABAC : No
Format settings, ReFrames : 2 frames
Muxing mode : Container profile=Unknown@4.0
Codec ID : V_MPEG4/ISO/AVC
Duration : 1h 10mn
Bit rate : 9 625 Kbps
Width : 1 920 pixels
Height : 1 080 pixels
Display aspect ratio : 16:9
Frame rate mode : Variable
Frame rate : 23.976 fps
Color space : YUV
Chroma subsampling : 4:2:0
Bit depth : 8 bits
Scan type : Progressive
Bits/(Pixel*Frame) : 0.194
Stream size : 4.76 GiB (97%)

Audio
ID : 2
Format : MPEG Audio
Format version : Version 1
Format profile : Layer 3
Mode : Joint stereo
Mode extension : MS Stereo
Codec ID : A_MPEG/L3
Codec ID/Hint : MP3
Duration : 1h 10mn
Bit rate mode : Constant
Bit rate : 128 Kbps
Channel(s) : 2 channels
Sampling rate : 44.1 KHz
Stream size : 64.8 MiB (1%)
Writing library : LAME3.98.2


Размер: 4.92 GB

Данный релиз можно скачать с сайта Всё 3D Рунета - торрент-трекера 3D фильмов, мультфильмов, документальных передач в форматах стереопара, анаглиф, 3D Blu-Ray.

Размер: 4.92 GB