I-pic.Ru - бесплатный фотохостинг без регистрации.



Полное название: IMAX / Space Junk 3D (2012) [BDrip, Half OverUnder / Вертикальная анаморфная стереопара]

Данный релиз Вы можете Скачать с сайта Открытый торрент-трекер :: Torrent-Lynx.Ru :: (без регистрации) на высокой скорости.

image


Полное название: IMAX / Space Junk 3D (2012) [BDrip, Half OverUnder / Вертикальная анаморфная стереопара]
Тип: Документальное 3D / >> Документальное 3D Стереопары <<

Country: USA

Runtime: 37min 25sec

Actors: Don Kessler, Tom Wilkinson
Directors: Melissa R. Butts
Language: English, перевод ОТСУТСТВУЕТ!

Оригинальное описание: WHAT GOES UP DOESN’T ALWAYS COME DOWN. With media headlines repeatedly warning us of debris falling from the skies, orbital debris (or “space junk”) has finally risen to the forefront of social consciousness. SPACE JUNK 3D, narrated by Academy Award® Nominee Tom Wilkinson, is the first movie to explore the exponentially expanding ring of debris that threatens the safety of our planet’s orbits. Experience mind-boggling collisions, both natural and man-made. Soar the stunning depths of Meteor Crater to an unprecedented view of our increasingly crowded orbits – 22,000 miles above earth! Join foremost expert Don Kessler, the “Father of Space Junk,” guides us through the challenges we face in protecting them, forging a new age of space discovery. This is a 3D cosmic adventure like no other!

Примерный перевод: То, что поднимается к небесам, не всегда возвращается на Землю. Заголовки СМИ неоднократно предупреждали нас про обломки, падающие с неба, так называемый орбитальный, или "космический" мусор. Наконец, эта проблема вышла на первый план в общественном сознании. IMAX / Space Junk 3D - это первый фильм, рассказывающий про экспоненциально расширяющееся кольцо мусора, которое угрожает безопасности Земли с орбиты нашей планеты. Эксперт Дон Кесслер - "Первооткрыватель космического мусора", раскрывает стоящие перед нами задачи в защите от этой угрозы, находящейся на  высоте 22000 миль. Это эпоха новых космических открытий! Это уникальное космическое 3D-приключение!

tuqyzvlm548a1538pl152dvyc.jpg pa9d8xrnlh0xt4q5hlxf106u1.jpg 9fpbvp0ym8l5lxbkud2b89mud.jpg

ct0xk94z0of0cs8omicnsn9vf.jpg atdmdhpxhc8f7wfk3enkb3wj5.jpg a3i0n08rmay2x65vb1igalokn.jpg

MediaInfo
Format : Matroska
File size : 2.04 GiB
Duration : 37mn 25s
Overall bit rate : 7 788 Kbps
Movie name : [torrent3d.ru]
Encoded date : UTC 2013-10-06 14:49:07
Writing application : mkvmerge v4.0.0 ('The Stars were mine') сборка от Jun 6 2010 16:18:42
Writing library : libebml v1.0.0 + libmatroska v1.0.0

Video
ID : 1
Format : AVC
Format/Info : Advanced Video Codec
Format profile : High@L4.1
Format settings, CABAC : Yes
Format settings, ReFrames : 2 frames
Muxing mode : Container profile=Unknown@4.1
Codec ID : V_MPEG4/ISO/AVC
Duration : 37mn 25s
Bit rate : 7 185 Kbps
Width : 1 920 pixels
Height : 1 080 pixels
Display aspect ratio : 16:9
Frame rate : 23.976 fps
Color space : YUV
Chroma subsampling : 4:2:0
Bit depth : 8 bits
Scan type : Progressive
Bits/(Pixel*Frame) : 0.145
Stream size : 1.88 GiB (92%)
Writing library : x264 core
Color primaries : BT.709-5, BT.1361, IEC 61966-2-4, SMPTE RP177
Transfer characteristics : BT.709-5, BT.1361
Matrix coefficients : BT.709-5, BT.1361, IEC 61966-2-4 709, SMPTE RP177

Audio
ID : 2
Format : AC-3
Format/Info : Audio Coding 3
Mode extension : CM (complete main)
Codec ID : A_AC3
Duration : 37mn 25s
Bit rate mode : Constant
Bit rate : 448 Kbps
Channel(s) : 6 channels
Channel positions : Front: L C R, Side: L R, LFE
Sampling rate : 48.0 KHz
Stream size : 120 MiB (6%)

Menu
00:00:00.000 : en:(01)00:00:00:000
00:02:23.893 : en:(02)00:02:23:893
00:05:52.894 : en:(03)00:05:52:894
00:07:34.912 : en:(04)00:07:34:912
00:08:48.486 : en:(05)00:08:48:486
00:10:49.649 : en:(06)00:10:49:649
00:13:31.894 : en:(07)00:13:31:894
00:15:35.643 : en:(08)00:15:35:643
00:17:08.861 : en:(09)00:17:08:861
00:18:24.812 : en:(10)00:18:24:812
00:19:58.197 : en:(11)00:19:58:197
00:22:06.158 : en:(12)00:22:06:158
00:25:26.191 : en:(13)00:25:26:191
00:28:30.291 : en:(14)00:28:30:291
00:31:26.134 : en:(15)00:31:26:134


Размер: 2.04 GB

Данный релиз можно скачать с сайта Всё 3D Рунета - торрент-трекера 3D фильмов, мультфильмов, документальных передач в форматах стереопара, анаглиф, 3D Blu-Ray.

Размер: 2.04 GB