I-pic.Ru - бесплатный фотохостинг без регистрации.



Полное название: The Smashing Pumpkins: Oceania / 3D in NYC (2012) [BDrip, Half OverUnder / Вертикальная анаморфная стереопара]
Тип: Музыкальные фильмы / Клипы 3D
Оригинальное название: The Smashing Pumpkins: Oceania - 3D in NYC
Год выпуска: 2013
Жанр: Alternative rock
Выпущено: США, Virgin Records
В ролях: The Smashing Pumpkins, Билли Корган, Джефф Шредер, Николь Фиорентино, Майк Берн

Длительность: 1:54:47 (Отсутствуют последние примерно 8 минут концерта)

О фильме: Oceania: Live in NYC - концерт The Smashing Pumpkins, отснятный в бруклинском Barclays Center в Нью-Йорке 25 декабря 2012 года. The Smashing Pumpkins - американская альтернативная рок-группа, образованная в Чикаго в 1988 году. В настоящее время музыканты выпустили новый альбом под названием Oceania, а также продолжают записывать новый материал для Teargarden by Kaleidyscope...

MediaInfo
Format : Matroska
File size : 9.32 GiB
Duration : 1h 54mn
Overall bit rate : 11.6 Mbps
Movie name : [torrent3d.ru]
Encoded date : UTC 2013-10-06 09:52:58
Writing application : mkvmerge v4.0.0 ('The Stars were mine') сборка от Jun 6 2010 16:18:42
Writing library : libebml v1.0.0 + libmatroska v1.0.0

Video
ID : 1
Format : AVC
Format/Info : Advanced Video Codec
Format profile : High@L4.1
Format settings, CABAC : Yes
Format settings, ReFrames : 2 frames
Muxing mode : Container profile=Unknown@4.1
Codec ID : V_MPEG4/ISO/AVC
Duration : 1h 54mn
Bit rate : 10.8 Mbps
Width : 1 920 pixels
Height : 1 080 pixels
Display aspect ratio : 16:9
Frame rate : 23.976 fps
Color space : YUV
Chroma subsampling : 4:2:0
Bit depth : 8 bits
Scan type : Progressive
Bits/(Pixel*Frame) : 0.216
Stream size : 8.62 GiB (93%)
Writing library : x264 core
Color primaries : BT.709-5, BT.1361, IEC 61966-2-4, SMPTE RP177
Transfer characteristics : BT.709-5, BT.1361
Matrix coefficients : BT.709-5, BT.1361, IEC 61966-2-4 709, SMPTE RP177

Audio
ID : 2
Format : AC-3
Format/Info : Audio Coding 3
Mode extension : CM (complete main)
Codec ID : A_AC3
Duration : 1h 54mn
Bit rate mode : Constant
Bit rate : 640 Kbps
Channel(s) : 6 channels
Channel positions : Front: L C R, Side: L R, LFE
Sampling rate : 48.0 KHz
Stream size : 525 MiB (6%)

Menu
00:00:00.000 : en:(01)00:00:00:000
00:05:53.353 : en:(02)00:05:53:353
00:09:32.613 : en:(03)00:09:32:613
00:13:15.169 : en:(04)00:13:15:169
00:17:33.677 : en:(05)00:17:33:677
00:21:04.596 : en:(06)00:21:04:596
00:24:59.623 : en:(07)00:24:59:623
00:30:46.553 : en:(08)00:30:46:553
00:40:38.018 : en:(09)00:40:38:018
00:45:14.128 : en:(10)00:45:14:128
00:49:25.629 : en:(11)00:49:25:629
00:54:19.547 : en:(12)00:54:19:547
00:57:13.471 : en:(13)00:57:13:471
01:02:14.439 : en:(14)01:02:14:439
01:09:09.270 : en:(15)01:09:09:270
01:19:37.272 : en:(16)01:19:37:272
01:22:53.927 : en:(17)01:22:53:927
01:24:18.136 : en:(18)01:24:18:136
01:28:37.437 : en:(19)01:28:37:437
01:33:29.186 : en:(20)01:33:29:186
01:40:29.565 : en:(21)01:40:29:565
01:47:54.384 : en:(22)01:47:54:384
01:53:04.652 : en:(23)01:53:04:652
01:57:48.811 : en:(24)01:57:48:811
02:01:06.259 : en:(25)02:01:06:259

Треклист

01. "Quasar" (5:05)
02. "Panopticon" (4:09)
03. "The Celestials" (3:50)
04. "Violet Rays" (4:34)
05. "My Love Is Winter" (3:37)
06. "One Diamond, One Heart" (3:54)
07. "Pinwheels" (5:52)
08. "Oceania" (10:09)
09. "Pale Horse" (4:35)
10. "The Chimera" (4:39)
11. "Glissandra" (4:31)
12. "Inkless" (3:03)
13. "Wildflower" (5:06)
14. "Space Oddity" [David Bowie cover] (7:38)
15. "X.Y.U." (10:23)
16. "Disarm" (3:31)
17. "Tonite Reprise" (1:27)
18. "Tonight, Tonight" (4:21)
19. "Bullet with Butterfly Wings" (5:02)
20. "The Dream Machine" (7:01)
21. "Hummer" (7:13)
22. "Ava Adore" (5:11)
23. "Cherub Rock" (4:43)
24. "Zero" (6:01)
Размер: 9.32 GB

Данный релиз можно скачать с сайта Всё 3D Рунета - торрент-трекера 3D фильмов, мультфильмов, документальных передач в форматах стереопара, анаглиф, 3D Blu-Ray.
льмов, документальных передач в форматах стереопара, анаглиф, 3D Blu-Ray.